Diary Of A Sex Addict 2008.1080p.BluRay. x264.DTS 5.1-FLHD - Nhật ký cố nàng nghiện tình dục











Code:
Diary.Of.A.Sex.Addict.2008.1080p.BluRay.DTS.x264-FLHD.mkv
IMDB link                                : www.imdb.com/title/tt0253040/
Format                                   : Matroska
Format version                           : Version 1
File size                                : 7.93 GiB
Duration                                 : 1h 41mn
Overall bit rate                         : 11.2 Mbps
Encoded date                             : UTC 2009-06-19 08:04:07
Writing application                      : mkvmerge v2.0.2 ('You're My Flame') built on Feb 21 2007 23:40:55
Writing library                          : libebml v0.7.7 + libmatroska v0.8.1
Video
ID                                       : 1
Format                                   : AVC
Format/Info                              : Advanced Video Codec
Format profile                           : High@L4.1
Format settings, CABAC                   : Yes
Format settings, ReFrames                : 5 frames
Codec ID                                 : V_MPEG4/ISO/AVC
Duration                                 : 1h 41mn
Bit rate                                 : 9 688 Kbps
Width                                    : 1 920 pixels
Height                                   : 816 pixels
Display aspect ratio                     : 2.35:1
Frame rate                               : 24.000 fps
Color space                              : YUV
Chroma subsampling                       : 4:2:0
Bit depth                                : 8 bits
Scan type                                : Progressive
Bits/(Pixel*Frame)                       : 0.258
Stream size                              : 6.70 GiB (85%)
Writing library                          : x264 core 67 r1134M b8808bf
Language                                 : Spanish
Default                                  : Yes
Forced                                   : No
Audio
ID                                       : 2
Format                                   : DTS
Format/Info                              : Digital Theater Systems
Codec ID                                 : A_DTS
Duration                                 : 1h 41mn
Bit rate mode                            : Constant
Bit rate                                 : 1 510 Kbps
Channel(s)                               : 6 channels
Channel positions                        : Front: L C R, Side: L R, LFE
Sampling rate                            : 48.0 KHz
Bit depth                                : 16 bits
Compression mode                         : Lossy
Stream size                              : 1.07 GiB (13%)
Language                                 : Spanish
Default                                  : Yes
Forced                                   : No

Diary Of A Sex Addict (2008)Valére là Cô gái trí thức và có ngoại hình hấp dẫn nhưng nỗi ám ảnh về tình dục luôn thôi thúc trong con người cô. Ngoại của cô , bà là người hiểu cô và luôn cho cô những lời khuyên về cuộc sống tình dục của mình. Cũng có thể nói thói quen sống “thoáng” và nghiện sex là di truyền của dòng họ khi bà của Valére cũng là 1 người rất ưu thích vấn đề đó. Valére đánh mất sự trong trắng của mình năm 15-16t với bạn trai, người mà cô nghĩ rằng mình yêu nhất. Và từ đó cô khám phá ra con người thật của bản thân mình, cô sống ko thể thiếu sex. Một câu nói quen thuộc của cô với các bạn đồng nghiệp là “sex is most important for me”. Valére bị ám ảnh về tình dục nặng đến độ thiếu nó, cô không tự chủ đc và cho dù là 1 người phụ nữ rất xinh đẹp, cô sẵng sàng khoát lên mình trang phục của 1 cô gái làng chơi để thoãn mãn nhu cầu đó. Valére yêu 1 doanh nhân đẹp trai và thành đạt khi công việc chính của cô gặp trở ngại, đó có thể là tình yêu đẹp đến với cô nhưng chẳng may khả năng chăn gối của chồng Valére là hạn chế và thường xuyên là vấn đề với cô. Valére luôn nhìn đồng hồ khi cùng ân ái với chồng và phát hiện ra nó chỉ chạy đc ko tới 2 phút. Trước những cơn ghen điên cuồn của chồng , Valére bỏ nhà đi và gia nhập vào đội quân gái làm tiền cao cấp … và đây là nơi để Valére nhận ra nhiều điều về sex cũng như chính bản thân mình




















http://subscene.com/subtitles/insati...tnamese/235904